&title=ハッピーシンセサイザ [DX]
&artist=EasyPop
&wholebpm=127
&lv_5=12+
&first=0.04
&inote_5=(127){12}4,5,4,6,5,4,{8}3h[4:1],,E7/A6,E3/A3,
5,5,3,3,6,5,4,3,
5,5,4,4,6,6,5,4,
5/3,3,4,6,5,4,4h[8:1]/5h[8:1],,
{16}6,5,,3,{8}4,4/5,6-8[8:1]/5-3[8:1],4/7,,,
2h[8:1]/1h[8:1],,7h[8:1]/8h[8:1],,1/2,{16}3,4,,6,5,,
{4}5h[8:1]/7h[8:1],2h[8:1]/4h[8:1],{16}5/6,,7,8,,2,1,,
{4}3h[8:1]/4h[8:1],5h[8:1]/6h[8:1],{16}2/5,,3,4,,6,{8}5,
4h[8:1]/6h[8:1],,3h[8:1]/5h[8:1],,5/4-6[8:1],3,2,3,
4h[8:1]/7h[8:1],,2h[8:1]/5h[8:1],,4/7,{16}6,5,,3,4,,
{4}2bh[8:1]/4h[8:1],5h[8:1]/7h[8:1],{16}4/8,,7,5,,2,4,,
{4}5h[8:1]/3bh[8:1],6h[8:1]/4h[8:1],{16}3/5,,2,1,,7,8,,
8b/7,,6,,5pp4[16:5]/4bqq5b[16:5],,3,,{2}5x/4bx,
{8}6,6,7/5-3[8:1],6,7/5-8[8:1],,2x,3,
4x>2[8:1],4x,8,7h[8:1],{16}1,1,,6/2h[16:3],,,4,,
3/5,,4,,3/8,,2,1,2,1,,3/8,,7,7,,
4/6,,3,3,,1,{8}1,7/8,6/1,5/2h[4:1],,
3,3,2/4-6[8:1],3,2/4-1[8:1],,7,6,
2b/5b,2b/5b,3b/4b,4b/5b,{16}6,5,,4/7h[16:3],,,,,
7-4[8:1],,7,,3,,3,,2,4,,1/8,,6,5,,
4h[8:1]/7h[8:1],,,5/7,,3,{8}4-8[8:1],,1x,1x,,
2>7[4:1],,7<2[4:1],,2,,7,,
6,6,5/7,4/6,3/5,E3/B2,E3/B2,,
7<2[4:1],,2>7[4:1],,7,,2,,
3,3,4/5,5/6,5/6,E5/B4/E7/B7,E5/B4/E7/B7,,
2V47[4:1],,7V52[4:1],,2,,7,,
3/7,6,5/4,3,2/5,3,8/4<7[4:1],,
7>2[4:1],,2,,5,,4,4,
3/5,3/5,{16}2,4,,3/5,,6,4,,{4}2-6b[8:1]/8-6[8:1],
8b-4[8:1]/2b-4b[8:1],2/8,{16}3/5,,2,1,,7,{8}8,
4/6,2,3/5pp5[4:1]*qq5b[4:1],7,,,,4x/6x,
{16}4x/6x,,2,1,,3/8,,5/7,,4/5,,3,{8}4-8[8:1],3/5,
6<1[8:1],7,3V14[4:1]*pp4[4:1],4,,,,,
2-5[8:1],6-1[8:1],2,6,{16}4,4h[8:1],,8,,5/6,{8}5/6,
7-5[8:1],3-1[8:1],7V38b[4:1],3,7b,,,1,
{16}2/8,,6,5,,7/8,,1/2,,3/4,,5/2h[16:13],{8},E2/B2,
E6,B7/E8,E4,C1,8b,1x/7x,3x>8[8:1]/5x<8[8:1],,
5/3v5[8:1],,3/5,,7h[8:1],{16}5,5,6,6,4,,
5/3-8[8:1],,7-4[8:1],,3,,7,,1b,,3,4,,6,5,,
3/7<4[8:1],,6,,2-5[8:1],,1,,6,,8,8,,2,{8}2,
3/7,4>6[16:3]/6,3/5,2/4,,5x,3x/7x,,
1/2<7[8:1],3,5,5,6/1,{16}3,4,,7,5,,
4/2>5[8:1],,1,,8,,7,,4/7,,6,5,,2,{8}4,
3-1[8:1]/7-1[8:1],4/6,3V51[4:1]/7V51[4:1],,3x/7x,,,1x/8x,
2/7,3qq5b[8:3]/6pp4[8:3],4/5,3x/6x,,,,,
{16}2,5,3,4,2,5,3,4,2-5[8:1],,1x/3x,,1x,,,,
5x/7x,,4/5,,3,4,,1,8-4b[8:1],2,7,3,8x,
